Home > Unable To > Permission Denied @ Error/blob.c/openblob/2614

Permission Denied @ Error/blob.c/openblob/2614

Contents

What is the possible impact of dirtyc0w a.k.a. "dirty cow" bug? This is my own summary: Use chown to make the directories owned by the correct user. (The correct user varies) Reply Edited by External Link to Interwiki (Bot) 19:43, 27 December build 5250) Input #0, mov,mp4,m4a,3gp,3g2,mj2, from '/Users/agencedesind/Desktop/56555570.mp4': Duration: 00:04:34.5, start: 0.000000, bitrate: 711 kb/s Stream #0.0(und), 25.00 fps(r): Video: h264, yuv420p, 640x480 Stream #0.1(und): Audio: aac, 44100 Hz, stereo ffmpeg: unrecognized But as usual the parsing issues throw strange error messages. http://iipseconline.com/unable-to/permission-denied-error-blob-c-openblob-2617.html

Originally Posted by jskandhari run the app as root "sudo" or open the saving directory as root and provide the permissions Well its not really an app, its a PHP library How to make Twisted geometry How can I wrap text into two columns? GD на сервере настроен нормально и вообще установлен? И похоже вам вообще нужен ImageMagick на сервер...Если в настройках модуля/плагина нет возможности сменить на GD, то нужен скорее всего ImageMagick(которого похоже и There's already a file called xxx.pdf and it's owned by somebody else and $USER doesn't have write permission for it. http://askubuntu.com/questions/517093/convert-im6-unable-to-open-image-xxx-permission-denied-error-blob-c-openbl

Imagemagick Convert Unable To Open Image Permission Denied

Click here to view all obituaries Search Obituaries Contact Us / Location Klingner-Cope Family Funeral Home Rivermonte 4500 S. One nice example is as stated on post, but the real issue starts if along with pipe you have string quotes and special characters to be passed.) String quote escape issues Regards, DOK kino06-04-2012, 16:49I installed ffmpeg and the thee external components required and imagemagick both in Lion and in Snow Leopard (for the right Mac OS)...I had the same response from

Not the answer you're looking for? Is that because the IUSR does not have permissions to c:\Windows\Temp ? Ubuntu Logo, Ubuntu and Canonical © Canonical Ltd. Gm Convert: Unable To Open File Could you also go into further detail on how I would use virtual hosts to accomplish this task?

Adv Reply July 12th, 2009 #5 jskandhari View Profile View Forum Posts Private Message A Carafe of Ubuntu Join Date Dec 2007 Location Chandigarh-India Beans 81 DistroUbuntu 11.10 Oneiric Ocelot Convert Unable To Open Image No Such File Or Directory Is there an extension I'm supposed to be using? Presenting #HondaConnect - Because nobody cares like Honda > https://t.… 10monthsago Honda Cars India launches advanced information platform Honda Connect - The Economic Times economictimes.indiatimes.com/industry/auto/… 10monthsago linkedin.com/jobs2/view/386… 1yearago Interesting Links Follow http://www.imagemagick.org/discourse-server/viewtopic.php?t=18287 If you're converting into a PDF and you're seeing Unable to open image 'xxx.pdf', the program has tried to open xxx.pdf for writing and has been rebuffed by the Kernel because

Our Cremation Options Why Choose Cremation The Cremation Process Memorial Services What is a Memorial Service? Imagemagick Unable To Open Image No Such File Or Directory Project or Open Source Matters.The Joomla! Let me know if you have trouble. -- http://hexmode.com/ Necessitous men are not, truly speaking, free men. -- Vernon v Bethell (1762), quoted by FDR's Second Bill of Rights _______________________________________________ MediaWiki-l This is terminal result: iMacxxxxxxxxx:~ xxxxxxxxx$ desktop/animatedJpgConverter/macosx-linux/makeVideoThumb.sh smevideo.mp4 Extracting images from .mp4 desktop/animatedJpgConverter/macosx-linux/makeVideoThumb.sh: line 6: ffmpeg: command not found Resizing mogrify: UnableToOpenBlob `tmp/frame*.png': No such file or directory @ error/blob.c/OpenBlob/2589.

Convert Unable To Open Image No Such File Or Directory

Thanks for your attention Fabio06-04-2012, 16:59well this message ffmpeg: command not found tells that ffmpeg cannot be found in your system. http://www.gossamer-threads.com/lists/wiki/mediawiki/300884 ImageMagick source code and algorithms are discussed here. Imagemagick Convert Unable To Open Image Permission Denied Tango Icons © Tango Desktop Project. Imagemagick Unable To Open Image Code: sudo mkdir /var/log/apache2/mysite Finally, we need to add the site to your hosts file.

montage: impossible d'ouvrir le fichier `tmp/frame*.png' @ error/png.c/ReadPNGImage/3648. ImageMagick functions, and ffmpeg is installed. So my question, since I know some of you might probably say I'm an idiot for not thinking about doing the sudo act, is: Why is the convert command only available Has anyone had experience upgrading datanucleus in the context of hive? Error Blob C Openblob 2638

Why a Memorial Service? Thanks. The file makeVideoTumb.sh was modified on line 6 by removing "- loglevel quiet". Check This Out Leave a Reply Cancel reply Enter your comment here...

Would it be hidden? Click Here Memorial Candle Tribute From Klingner-Cope Family Funeral Home "We are pleased to provide this Book of Memories to the family." View full message >>> In Memory of Jackie Sue Are you sure these macros are defined in Fedora? -- You are receiving this mail because: You are on the CC list for the bug. _______________________________________________ package-review mailing list [email protected] https://admin.fedoraproject.org/mailman/listinfo/package-review

Your help is greatly appreciated.FYI, server is Linux CentOSThanks!

Code: cd /etc/apache2/sites-available sudo a2ensite records Not sure why you can't call it with a path, but apparently you can't. The convert command line utility meets most of the requirement. CMS>Расширения для Joomla>Поиск компонентов, модулей, плагинов (Модератор: xobot)>Тема: Не работает при заливки на хостинг модуль sigplus « предыдущая тема следующая тема » Перейти в: Пожалуйста, выберите назначение: ----------------------------- Общий ----------------------------- SOLUTION Problem: The directories were owned by root.

GBiz is too! Latest News Stories: Docker 1.0Heartbleed Redux: Another Gaping Wound in Web Encryption UncoveredThe Next Circle of Hell: Unpatchable SystemsGit 2.0.0 ReleasedThe Linux Foundation Announces Core Infrastructure I've confirmed using the identify -version command that ImageMagick is installed and I've confirmed using the site's php info page, that imagick is enabled. Notation for lengths Why don't cameras offer more than 3 colour channels? (Or do they?) Human vs apes: What advantages do humans have over apes? CMS>Расширения для Joomla>Поиск компонентов, модулей, плагинов (Модератор: xobot)>Тема: Не работает при заливки на хостинг модуль sigplus Страниц: [1] Вниз « предыдущая тема следующая тема » Добавить закладку | Печать

Regards Iain Thanks Iain, I'm a little bit of a newb when it comes to setting up a webserver in ubuntu, I havnt used virtual hosts before, but i've done some GD на сервере настроен нормально и вообще установлен? И похоже вам вообще нужен ImageMagick на сервер...Если в настройках модуля/плагина нет возможности сменить на GD, то нужен скорее всего ImageMagick(которого похоже и build 5250) Input #0, mov,mp4,m4a,3gp,3g2,mj2, from '/Users/xxx/Documents/xxx/projet site xxx/fichier source 2/video/test.mp4': Duration: 00:00:07.9, start: 0.000000, bitrate: 395 kb/s Stream #0.0(und), 25.00 fps(r): Video: h264, yuv420p, 512x288 Output #0, image2, to 'tmp/frame%03d.png': One thing to be concerned about is that it seems there are no plans for making datanucleus work with JDK7.

Can a bike computer be used on the rear wheel?